F.B. Purity for Firefox | Paltan Movie Free Download HD Cam | Shingeki no Kyojin Season 3 Episode 8

Direct Download Free Movies Mp3's Software Programs Stock Images » STOCK IMAGES » Business & Finance » Bradley Benner - Local GMB Pro 2018 

Bradley Benner - Local GMB Pro 2018

Bradley Benner - Local GMB Pro 2018

Bradley Benner - Local GMB Pro 2018
English | Size: 2.63 GB
Category: Business

Generate Converting Leads For Your Business
Designed For Any Type Of Business - YES - ANY local business can benefit from this method...
If you want to generate leads from Google for a local business, you need this course. Not only will you generate more leads
for you or your clients business, but you will do it WITHOUT expensive and time consuming traditional SEO methods.

Bradley Benner - Local GMB Pro 2018


HI-SPEED DOWNLOAD
Free 300 GB with Full DSL-Broadband Speed!



This advanced training is brought to you by the co-founders of Semantic Mastery & RYS Reloaded. Simple. Powerful. Real World Results.

It's pretty simple when you get down to it. Every business needs qualified leads, right?

That's what you get with Local GMB Pro. More qualified leads who want to spend money with your business, more maps exposure, more
clicks, and just as important, more attention from potential customers.

In just 1 week you can blaze through the concise but complete core training...and in 30 days get RESULTS - more clicks, conversions, and customers.

What Will I Get From Local GMB Pro?

Lead gen the easy way: Over-the-shoulder video tutorials
Simple techniques for maximum effect
Local leads for agencies, clients, local marketers and affiliate marketers
No longer need a TLD website to get results
Lead generation which can be repeated consistently
Methods can be used with existing and/or brand new GMB's
Learn how to set up a Google My Business (GMB) listing
See how to properly verify a GMB listing
How you SHOULD be setting up GMB options for maximum impact
Optimization of the GMB listing
Taking the optimized GMB listing and getting MORE leads

ID : 1
Format : AVC
Format/Info : Advanced Video Codec
Format profile : [email protected]
Format settings : 1 Ref Frames
Format settings, CABAC : No
Format settings, RefFrames : 1 frame
Format settings, GOP : M=1, N=12
Codec ID : avc1
Codec ID/Info : Advanced Video Coding
Duration : 6 min 18 s
Bit rate : 1 296 kb/s
Width : 1 280 pixels
Height : 720 pixels
Display aspect ratio : 16:9
Frame rate mode : Constant
Frame rate : 25.000 FPS
Color space : YUV
Chroma subsampling : 4:2:0
Bit depth : 8 bits
Scan type : Progressive
Bits/(Pixel*Frame) : 0.056
Stream size : 58.4 MiB (92%)
Encoded date : UTC 2018-06-07 10:09:25
Tagged date : UTC 2018-06-07 10:09:25
Menus : 3

Audio
ID : 2
Format : AAC
Format/Info : Advanced Audio Codec
Format profile : LC
Codec ID : mp4a-40-2
Duration : 6 min 17 s
Bit rate mode : Variable
Bit rate : 102 kb/s
Channel(s) : 2 channels
Channel positions : Front: L R
Sampling rate : 44.1 kHz
Frame rate : 43.066 FPS (1024 SPF)
Compression mode : Lossy
Stream size : 4.58 MiB (7%)
Encoded date : UTC 2018-06-07 10:09:25
Tagged date : UTC 2018-06-07 10:09:25

Buy Long-term Premium Accounts To Support Me & Max Speed

DOWNLOAD:

Bradley Benner - Local GMB Pro 2018
http://rapidgator.net/file/b0375333d8b8962fe00b676151d6f7ac/Bradley_Benner_-_Local_GMB_Pro.part1.rar.html
http://rapidgator.net/file/77c15f6e52b649747dc09b7114edf779/Bradley_Benner_-_Local_GMB_Pro.part2.rar.html
http://rapidgator.net/file/54aa9190b63c62f4997dd670608bb92c/Bradley_Benner_-_Local_GMB_Pro.part3.rar.html

Bradley Benner - Local GMB Pro 2018
http://nitroflare.com/view/21CD5C6FF60278D/Bradley_Benner_-_Local_GMB_Pro.part1.rar
http://nitroflare.com/view/20558B604247DA3/Bradley_Benner_-_Local_GMB_Pro.part2.rar
http://nitroflare.com/view/B80EF38B29849F3/Bradley_Benner_-_Local_GMB_Pro.part3.rar


If any links die or problem unrar, send request to http://goo.gl/aUHSZc



Bradley Benner - Local GMB Pro 2018

14 Days Free Access to USENET
Free 300 GB with full DSL-Broadband Speed!




 Register | Forgot your password?




  • GFXTRA.COM
  • New Fonts
  • New Envato
  • Full Downloads
  • Torrent Search
  • Wow E-books
  • Video Training
  • 10k+ daily uniques and pr3 or above PM me